Jump to content

к/ф "Темный рыцарь" / "The Dark Knight", 2008


TuFED
 Share

Recommended Posts

Темный рыцарь / The Dark Knight

 

[imgr]http://www.dagtk.net/forum/extensions/hcs_image_uploader/uploads/250000/5500/255878/thumb/p15c63dupgp19ue3101e191d1os11.jpg[/imgr]

 

 

Год выпуска: 2008

Жанр: фантастика, боевик, триллер, криминал, ...

Страна: США http://underverse.su/images/flags_small/usa.png

Режиссер: Кристофер Нолан / Christopher Nolan

В ролях: Кристиан Бэйл, Хит Леджер, Аарон Экхарт, Майкл Кейн, Мэгги Джилленхол, Гари Олдман, Морган Фриман, Моника Карнен, Рон Дин, Киллиан Мёрфи

 

 

Сюжет фильма: Бэтмен поднимает ставки в войне с криминалом. С помощью лейтенанта Джима Гордона и прокурора Харви Дента он намерен очистить улицы от преступности, отравляющей город. Сотрудничество оказывается эффективным, но скоро они обнаружат себя посреди хаоса, развязанного восходящим криминальным гением, известным испуганным горожанам под именем Джокер.

 

 

КиноПоиск - 8.321 (52 465)

IMDB - 8.9 (464,262)

Продолжительность: 02:32:13

Качество видео: BD-Remux

 

 

Видео: кодек: VC-1, формат: mkv, размер кадра: 1920x1080, битрейт: 23,5 мб/с

Аудио #1: язык: русский, перевод: дублированный (дубляж), кодек: AC3 5.1, битрейт: 448 кб/с

Аудио #2: язык: английский, перевод: оригинал, кодек: AC3 5.1, битрейт: 640 кб/с

Субтитры #1: тип: вшитые отключаемые, язык: русский (SDI Media Group), формат: SRT

Субтитры #2: тип: вшитые отключаемые, язык: русский (John2s), формат: SRT

Субтитры #3: тип: вшитые отключаемые, язык: русский (Воронин), формат: SRT

Субтитры #4: тип: вшитые отключаемые, язык: английский, формат: SRT

 

[spoiler=MediaInfo]

General
Complete name                    : D:\Video\Films\Б\Бэтмен\Темный рыцарь (The Dark Knight) [2008, BDRemux 1080p].mkv
Format                           : Matroska
File size                        : 26.7 GiB
Duration                         : 2h 32mn
Overall bit rate                 : 25.1 Mbps
Movie name                       : The Dark Knight
Encoded date                     : UTC 2010-08-14 19:26:59
Writing application              : mkvmerge v4.1.1 ('Bouncin' Back') сборка от Jul  4 2010 12:25:53
Writing library                  : libebml v1.0.0 + libmatroska v1.0.0

Video
ID                               : 1
Format                           : VC-1
Format profile                   : AP@L3
Codec ID                         : WVC1
Codec ID/Hint                    : Microsoft
Duration                         : 2h 32mn
Bit rate                         : 23.5 Mbps
Width                            : 1 920 pixels
Height                           : 1 080 pixels
Display aspect ratio             : 16:9
Frame rate                       : 23.976 fps
Chroma subsampling               : 4:2:0
Bit depth                        : 8 bits
Scan type                        : Progressive
Bits/(Pixel*Frame)               : 0.473
Stream size                      : 25.0 GiB (94%)

Audio #1
ID                               : 2
Format                           : AC-3
Format/Info                      : Audio Coding 3
Mode extension                   : CM (complete main)
Codec ID                         : A_AC3
Duration                         : 2h 32mn
Bit rate mode                    : Constant
Bit rate                         : 448 Kbps
Channel(s)                       : 6 channels
Channel positions                : Front: L C R, Side: L R, LFE
Sampling rate                    : 48.0 KHz
Bit depth                        : 16 bits
Stream size                      : 488 MiB (2%)
Language                         : Russian

Audio #2
ID                               : 3
Format                           : AC-3
Format/Info                      : Audio Coding 3
Mode extension                   : CM (complete main)
Codec ID                         : A_AC3
Duration                         : 2h 32mn
Bit rate mode                    : Constant
Bit rate                         : 640 Kbps
Channel(s)                       : 6 channels
Channel positions                : Front: L C R, Side: L R, LFE
Sampling rate                    : 48.0 KHz
Bit depth                        : 16 bits
Stream size                      : 697 MiB (3%)

Text #1
ID                               : 4
Format                           : UTF-8
Codec ID                         : S_TEXT/UTF8
Codec ID/Info                    : UTF-8 Plain Text
Title                            : SDI Media Group
Language                         : Russian

Text #2
ID                               : 5
Format                           : UTF-8
Codec ID                         : S_TEXT/UTF8
Codec ID/Info                    : UTF-8 Plain Text
Title                            : John2s
Language                         : Russian

Text #3
ID                               : 6
Format                           : UTF-8
Codec ID                         : S_TEXT/UTF8
Codec ID/Info                    : UTF-8 Plain Text
Title                            : Воронин
Language                         : Russian

Text #4
ID                               : 7
Format                           : UTF-8
Codec ID                         : S_TEXT/UTF8
Codec ID/Info                    : UTF-8 Plain Text

 

 

[spoiler=Скриншоты]http://www.dagtk.net/forum/extensions/hcs_image_uploader/uploads/250000/5500/255878/thumb/p15c63k6vr1152ic12g4sqk1mo91.jpg http://www.dagtk.net/forum/extensions/hcs_image_uploader/uploads/250000/5500/255878/thumb/p15c63k6vrffh1mti9uekp8r6k2.jpg http://www.dagtk.net/forum/extensions/hcs_image_uploader/uploads/250000/5500/255878/thumb/p15c63k6vr7gmilq1206k0r14rh3.jpg http://www.dagtk.net/forum/extensions/hcs_image_uploader/uploads/250000/5500/255878/thumb/p15c63k6vre0cc73dr4103ubl74.jpg

 

Edited by TuFED
Link to comment
Share on other sites

  • Replies 104
  • Created
  • Last Reply

Top Posters In This Topic

TuFED это понятно, если хочешь дать ссылку торрент просто добавить можно ее уже существованию тему а не создавать новую, для этого попроси Модераторов например меня !!!

Так что прошу не создавай новые темы иначе я их буду удалять

Link to comment
Share on other sites

KILLZONE, Да :( В существующую тему нет возможности пока добавить торрент-файл :( Нужно вначале создать, а потом объединить...
Link to comment
Share on other sites

  • 3 months later...
  • 11 months later...

http://kino-govno.com/img/32888/32888a.jpg

Вышел новый номер Empire с откровениями Кристофера Нолана по поводу «Тёмного рыцаря: Возрождение легенды». Массы, ясное дело, ликуют.

 

Нолан о сюжете:

 

— Вся суть в в том, чтобы поставить точку в истории Бэтмена и Брюса Уэйна. В прошлом фильме мы оставили его в очень шатком положении. Возможно, для многих станет сюрпризом то, что события разворачиваются спустя восемь лет после "Тёмного рыцаря". Брюс Уэйн постарел и сильно сдал. Антагонист Бэйн для него очень непростой соперник. Выбрав нашего злодея и наш сюжет, мы проверяем Бэтмена на физическую и ментальную прочность.

 

Том Харди о своём персонаже:

 

— Брутальный. Здоровенный мужик, совершенно без тормозов Клинический до такой степени, что у него собственный боевой стиль, которым он выносит противника. Он не просто дерётся, а устраивает бойню. Тяжело бьёт руками и ногами. Он крушит черепа, ломает суставы, дробит грудную клетку, вырывает позвоночник руками и сворачивает шеи. Он настоящий террорист как по складу ума, так и по своим бездушным поступкам.

 

Костюмер Линда Хемминг о Бэйне:

 

— Он получает серьёзное увечье в начале фильма. И вынужден дышать газом, чтобы уменьшить боль. Без маски он не жилец. Трубки, по которым поступает обезболивающее, идут от маски по линии челюсти и на спину, где находятся два баллона.

 

Кристиан Бэйл о главном герое:

 

— Насколько долго боль от утраты может определять жизнь человека? Конечно, здорово шпынять злодеев — это настоящий героизм, который привлекает внимание, но в конечном итоге не более чем способ справиться с невыносимым горем. И для Брюса Уэйна наступило время встретиться с этой болью лицом к лицу.

 

Нолан о прологе в кинотеатрах IMAX:

 

— Фактически это первые шесть-семь минут фильма. Знакомство с Бэйном и атмосферой картины.

Link to comment
Share on other sites

только что посмотрел этот фильм по тнт, великолепный фильм, самым лучшим образом злодея для меня останется джокер, я впервые вижу что бы так хорошо актер играл свою роль...

так же, стоит отметить бэтмена, он единственый супергерой который меня действительно прикалол, а остальной шлак ( человек-паук, фонарь, фантастическая четверка) я в серьез не воспринимаю,

впервые, я с таким удавольствием смотрел супергеройское кино) 9/10

[merge_posts_bbcode]Добавлено: 2011-11-27 20:18:03[/merge_posts_bbcode]

 

oklahoma,

"ценители"

2009 — Премия «Оскар» за лучшую мужскую роль второго плана в фильме «Тёмный рыцарь»

 

-

 

только что узнал что он умер =( жаль актера((

 

Link to comment
Share on other sites

Join the conversation

You can post now and register later. If you have an account, sign in now to post with your account.

Guest
Reply to this topic...

×   Pasted as rich text.   Paste as plain text instead

  Only 75 emoji are allowed.

×   Your link has been automatically embedded.   Display as a link instead

×   Your previous content has been restored.   Clear editor

×   You cannot paste images directly. Upload or insert images from URL.

Loading...
 Share


×
×
  • Create New...