Jump to content

к/ф "007: СПЕКТР" / "Spectre" , 2015


SHAKUR1
 Share

Recommended Posts

image.php?di=R749

 

Кинопоиск

 

Зашифрованное послание из неизвестного источника выводит Бонда на след зловещей глобальной организации под кодовым названием СПЕКТР, в то время как М пытается спасти секретную разведывательную службу от ликвидации.

 

Скачать с фтп Спектр 720p 6,8Gb

[spoiler=mediainfo]General
Unique ID : 188633948639163070137843880195097195789 (0x8DE993B7A9974500B6DDE1140D05750D)
Complete name : D:\Install\Torrent\Film\Spectre.2015.720p.BRRip.x264.AAC.mkv
Format : Matroska
Format version : Version 4 / Version 2
File size : 6.76 GiB
Duration : 2h 28mn
Overall bit rate : 6 531 Kbps
Movie name : 007.Спектр_Spectre.2015.BDRip.720p.NNM-CLUB
Encoded date : UTC 2016-01-30 17:43:26
Writing application : mkvmerge v6.8.0 ('Theme for Great Cities') 64bit built on Mar 2 2014 21:34:26
Writing library : libebml v1.3.0 + libmatroska v1.4.1

Video
ID : 1
Format : AVC
Format/Info : Advanced Video Codec
Format profile : High@L4.1
Format settings, CABAC : Yes
Format settings, ReFrames : 5 frames
Codec ID : V_MPEG4/ISO/AVC
Duration : 2h 28mn
Bit rate : 4 829 Kbps
Width : 1 280 pixels
Height : 536 pixels
Display aspect ratio : 2.40:1
Frame rate mode : Constant
Frame rate : 23.976 fps
Color space : YUV
Chroma subsampling : 4:2:0
Bit depth : 8 bits
Scan type : Progressive
Bits/(Pixel*Frame) : 0.294
Stream size : 4.86 GiB (72%)
Title : 007.Спектр_Spectre.2015.BDRip.720p.NNM-CLUB
Writing library : x264 core 148 r2638 7599210
Encoding settings : cabac=1 / ref=5 / deblock=1:0:0 / analyse=0x3:0x133 / me=umh / subme=7 / psy=1 / psy_rd=1.00:0.00 / mixed_ref=1 / me_range=16 / chroma_me=1 / trellis=1 / 8x8dct=1 / cqm=0 / deadzone=21,11 / fast_pskip=0 / chroma_qp_offset=-2 / threads=12 / lookahead_threads=2 / sliced_threads=0 / nr=0 / decimate=1 / interlaced=0 / bluray_compat=0 / constrained_intra=0 / bframes=3 / b_pyramid=2 / b_adapt=1 / b_bias=0 / direct=1 / weightb=1 / open_gop=0 / weightp=2 / keyint=250 / keyint_min=23 / scenecut=40 / intra_refresh=0 / rc_lookahead=40 / rc=2pass / mbtree=1 / bitrate=4829 / ratetol=1.0 / qcomp=0.60 / qpmin=0 / qpmax=69 / qpstep=4 / cplxblur=20.0 / qblur=0.5 / ip_ratio=1.40 / aq=1:1.00
Language : English
Default : Yes
Forced : No

Audio #1
ID : 2
Format : AC-3
Format/Info : Audio Coding 3
Mode extension : CM (complete main)
Format settings, Endianness : Big
Codec ID : A_AC3
Duration : 2h 28mn
Bit rate mode : Constant
Bit rate : 192 Kbps
Channel(s) : 2 channels
Channel positions : Front: L R
Sampling rate : 48.0 KHz
Bit depth : 16 bits
Compression mode : Lossy
Stream size : 203 MiB (3%)
Title : Дубляж (чистый звук)
Language : Russian
Default : Yes
Forced : Yes

Audio #2
ID : 3
Format : DTS
Format/Info : Digital Theater Systems
Mode : 16
Format settings, Endianness : Big
Codec ID : A_DTS
Duration : 2h 28mn
Bit rate mode : Constant
Bit rate : 1 509 Kbps
Channel(s) : 6 channels
Channel positions : Front: L C R, Side: L R, LFE
Sampling rate : 48.0 KHz
Bit depth : 24 bits
Compression mode : Lossy
Stream size : 1.56 GiB (23%)
Language : English
Default : No
Forced : No

Text #1
ID : 4
Format : UTF-8
Codec ID : S_TEXT/UTF8
Codec ID/Info : UTF-8 Plain Text
Title : English-Forced
Language : English
Default : Yes
Forced : Yes

Text #2
ID : 5
Format : UTF-8
Codec ID : S_TEXT/UTF8
Codec ID/Info : UTF-8 Plain Text
Default : No
Forced : No

Menu
00:00:00.000 : en:00:00:00.000
00:06:09.119 : en:00:06:09.119
00:13:04.784 : en:00:13:04.784
00:18:58.471 : en:00:18:58.471
00:24:46.777 : en:00:24:46.777
00:28:04.057 : en:00:28:04.057
00:32:15.559 : en:00:32:15.559
00:36:58.591 : en:00:36:58.591
00:41:56.639 : en:00:41:56.639
00:46:13.145 : en:00:46:13.145
00:50:51.924 : en:00:50:51.924
00:53:43.220 : en:00:53:43.220
01:00:21.368 : en:01:00:21.368
01:06:48.213 : en:01:06:48.213
01:10:58.963 : en:01:10:58.963
01:15:14.093 : en:01:15:14.093
01:18:55.648 : en:01:18:55.648
01:26:11.041 : en:01:26:11.041
01:29:40.000 : en:01:29:40.000
01:36:43.548 : en:01:36:43.548
01:41:44.390 : en:01:41:44.390
01:49:06.415 : en:01:49:06.415
01:55:52.821 : en:01:55:52.821
01:59:39.214 : en:01:59:39.214
02:04:19.744 : en:02:04:19.744
02:09:28.511 : en:02:09:28.511
02:14:05.663 : en:02:14:05.663
02:19:42.374 : en:02:19:42.374

 

Link to comment
Share on other sites

Join the conversation

You can post now and register later. If you have an account, sign in now to post with your account.

Guest
Reply to this topic...

×   Pasted as rich text.   Paste as plain text instead

  Only 75 emoji are allowed.

×   Your link has been automatically embedded.   Display as a link instead

×   Your previous content has been restored.   Clear editor

×   You cannot paste images directly. Upload or insert images from URL.

Loading...
 Share

×
×
  • Create New...